Wall Street:El dinero nunca duerme[2010][Drama][BDrip][Español - Descarga Gratis

Wall Street:El dinero nunca duerme[2010][Drama][BDrip][Español - Descarga Gratis

Descargas Gratis descargar-peliculas-psp




Wall Street:El dinero nunca duerme 2010

TITULO ORIGINAL Wall Street 2: Money Never Sleeps

AÑO 2010 Ver trailer externo

DURACION 131 min. Trailers/Videos

PAIS Seccion visual

DIRECTOR Oliver Stone

GUION Allan Loeb, Stephen Schiff (Personajes: Stanley Weiser, Oliver Stone)

MUSICA Craig Armstrong

FOTOGRAFIA Rodrigo Prieto

REPARTO Shia LaBeouf, Michael Douglas, Carey Mulligan, Susan Sarandon, Frank Langella, Josh Brolin, Eli Wallach, Austin Pendleton, John Bedford Lloyd, Vanessa Ferlito, John Buffalo Mailer, Jason Clarke, Christian Baha, Oliver Stone, Charlie Sheen

PRODUCTORA 20th Century Fox / Edward R. Pressman Production

WEB OFICIAL

GENERO Drama | Secuela. Bolsa & negocios

SINOPSIS

Secuela de la popular cinta de 1987 "Wall Street". Ambientada 20 años despues de la original. Puesto en autonomía despues de cumplir una prolongada condena en prision, el implacable tiburon de las finanzas Gordon Gekko (Michael Douglas) se encuentra fuera de un mundo que en tiempos domino. Buscando reconstituir sus arruinadas relaciones con su hija, Gekko conoce por casualidad a Jakob (Shia LaBeouf), el prometido de su hija. Juntos iniciaran un intercambio beneficioso, en principio, para ambos. Gordon le ayudara a vengar la ruina del mentor de Jakob, y este le intentara reconciliar con su hija. (FILMAFFINITY)



DATOS DEL VIDEO:

Calidad: BDrip m-720p

Video: (H264)/MPEG-4/AVC - 25,000fps

Conversion: MP4-AVC HQ

Tamaño: 491mb

Resolucion: 480x224

Duracion: 02:07:31

Audio: MPEG-4 44100HZ/Bitrate:128kbps



Idioma: Español de España



[INFO]

Codigo:
General
Complete name                    : C:\Users\carlos\Desktop\Wall Street  El dinero nunca duerme 2010 Drama [BDrip m-720p x264 mkv] Esp-MP3-Mic by-uytyiu (1)\Wall Street  El dinero nunca duerme 2010 Drama [BDrip m-720p x264 mkv] Esp-MP3-Mic by-uytyiu (1).mp4
Format                           : MPEG-4
Format profile                   : Base Media
Codec ID                         : isom
File size                        : 491 MiB
Duration                         : 2h 7mn
Overall bit rate                 : 538 Kbps
Writing application              : Lavf52.52.0

Video
ID : 1
Format : AVC
Format/Info : Advanced Video Codec
Format profile :
Format settings, CABAC : Yes
Format settings, ReFrames : 2 frames
Codec ID : avc1
Codec ID/Info : Advanced Video Coding
Duration : 2h 7mn
Bit rate mode : Variable
Bit rate : 400 Kbps
Width : 480 pixels
Height : 224 pixels
Display aspect ratio : 2.35:1
Frame rate mode : Constant
Frame rate : 25.000 fps
Resolution : 8 bits
Colorimetry : 4:2:0
Scan type : Progressive
Bits/(Pixel*Frame) : 0.149
Stream size : 365 MiB (74%)
Writing library : x264 core 86 r1442M 781d300
Encoding settings : cabac=1 / ref=2 / deblock=1:0:0 / analyse=0x1:0x131 / me=hex / subme=7 / psy=1 / psy_rd=1.00:0.00 / mixed_ref=1 / me_range=16 / chroma_me=1 / trellis=1 / 8x8dct=0 / cqm=0 / deadzone=21,11 / fast_pskip=1 / chroma_qp_offset=-2 / threads=4 / sliced_threads=0 / nr=0 / decimate=1 / interlaced=0 / constrained_intra=0 / bframes=3 / b_pyramid=0 / b_adapt=2 / b_bias=0 / direct=3 / wpredb=1 / wpredp=2 / keyint=250 / keyint_min=25 / scenecut=40 / intra_refresh=0 / rc_lookahead=40 / rc=cbr / mbtree=1 / bitrate=400 / ratetol=0.2 / qcomp=0.60 / qpmin=10 / qpmax=51 / qpstep=4 / vbv_maxrate=2000 / vbv_bufsize=2000 / ip_ratio=1.41 / aq=1:1.00 / pulldown=0 / nal_hrd=none
Language : Spanish

Audio
ID : 2
Format : AAC
Format/Info : Advanced Audio Codec
Format version : Version 4
Format profile : LC
Format settings, SBR : No
Codec ID : 40
Duration : 2h 7mn
Bit rate mode : Variable
Bit rate : 132.3 Kbps
Channel(s) : 2 channels
Channel positions : Front: L R
Sampling rate : 48.0 KHz
Stream size : 121 MiB (25%)








[ CONVERSION A MP4 ]








Codigo:


General
Nombre íntegro : C:\Users\carlos\Desktop\Wall Street El dinero nunca duerme 2010 Drama [BDrip m-720p x264 mkv] Esp-MP3-Mic by-uytyiu (1).mkv
Formato : Matroska
Tamaño del archivo : 2,19GIB
Duracion : 2h 7min.
Bitrate total : 2 458Kbps
Pelicula : Wall.Street.2.Money.Never.Sleeps.2010.720p.BDRip.AC3.x264-AdiT
Fecha de codificacion : UTC 2010-11-22 19:25:26
Codificando : mkvmerge v3.4.0 ("Rapunzel") built on May 15 2010 09:38:20
Codificando libreria : libebml v0.8.0 + libmatroska v0.9.0

Video
Formato : AVC
Formato/Info : Advanced Video Codec
Formato del perfil :
Ajustes del formato, CABAC : Si
Ajustes del formato, RefFrames : 5 frame
Modo Muxing : Container profile=Unknown@4.1
ID Codec : V_MPEG4/ISO/AVC
Duracion : 2h 7min.
Bitrate : 2 224Kbps
Ancho : 1 280pixeles
Alto : 544pixeles
Relacion de apariencia : 2.35
Velocidad de cuadro : 25,000fps
Velocidad de cuadro Original : 23,976fps
Resolucion : 24bits
Colorimetry : 4:2:0
Tipo de exploracion : Progresivo
Bits/(Pixel*cuadros) : 0.128
Titulo : Wall Street El dinero nunca duerme 2010 Drama [BDrip m-720p x264 mkv] Esp-MP3-Mic by-uytyiu
Codificando libreria : x264 core 98 r1649 c54c47d
Opciones de codificacion : cabac=1 / ref=5 / deblock=1:-3:-3 / analyse=0x3:0x133 / me=umh / subme=8 / psy=1 / psy_rd=1.00:0.00 / mixed_ref=1 / me_range=32 / chroma_me=1 / trellis=2 / 8x8dct=1 / cqm=2 / deadzone=21,11 / fast_pskip=0 / chroma_qp_offset=-2 / threads=6 / sliced_threads=0 / nr=0 / decimate=1 / interlaced=0 / constrained_intra=0 / bframes=3 / b_pyramid=2 / b_adapt=1 / b_bias=0 / direct=1 / weightb=1 / weightp=2 / keyint=250 / keyint_min=25 / scenecut=40 / intra_refresh=0 / rc_lookahead=40 / rc=crf / mbtree=1 / crf=21.5 / qcomp=0.60 / qpmin=10 / qpmax=51 / qpstep=4 / ip_ratio=1.40 / aq=1:1.00
Idioma : español

Audio
Formato : MPEG Audio
Formato de la version : Version 1
Formato del perfil : Layer 3
ID Codec : A_MPEG/L3
ID Codec/ : MP3
Duracion : 2h 7min.
Bitrate : 128Kbps
Canales(es) : 2canales
Velocidad de la regla : 48,0KHz
Resolucion : 16bits








TRAILER:
















this.innerHTML = "-";


this.title = "Reset video size";


this.parentNode.parentNode.parentNode.parentNode.width=638;


this.parentNode.parentNode.parentNode.parentNode.getElementsByTagName("object")[0].width=638;


this.parentNode.parentNode.parentNode.parentNode.getElementsByTagName("object")[0].height=515;


} else {


this.innerHTML = "+";


this.title = "Increase this video\"s size";


this.parentNode.parentNode.parentNode.parentNode.width=425;


this.parentNode.parentNode.parentNode.parentNode.getElementsByTagName("object")[0].width=425;


this.parentNode.parentNode.parentNode.parentNode.getElementsByTagName("object")[0].height=355;


}


">+










ERROR: If you can see this, then is down or you don"t have Flash installed.




CAPTURA DE IMAGEN:






DESCARGA:






bajar el archivo Pulsando en la figuración de la rana:









Autor: chichoo
http://libros-online-gratis.blogspot.com/

No hay comentarios:

Publicar un comentario en la entrada